| 導購 | 订阅 | 在线投稿
分享
 
 
 

《絕對無敵雷神王》(Zettai Muteki Raijin-Oh)[1991年04月03日經典][HKG字幕組][全51集]更新第6集[RMVB]

來源:互聯網  2009-12-07 03:14:21  評論

中文名: 絕對無敵雷神王

英文名: Zettai Muteki Raijin-Oh

資源格式: RMVB

版本: [1991年04月03日經典][HKG字幕組][全51集]更新第6集

發行時間: 1991年04月03日

導演: 川瀬敏文

地區: 日本

語言: 日語

簡介:

《絕對無敵雷神王》(Zettai Muteki Raijin-Oh)[1991年04月03日經典][HKG字幕組][全51集]更新第6集[RMVB]

【作品簡介】

絕對無敵(日文:絶対無敵ライジンオー,英文:Zettai Muteki Raijin-Oh),是由日昇動畫所制作的Eldran系列第一部作品,於1991年4月3日至1992年3月25日間,在東京電視台所播映的動畫,播畢後並有發行四部OVA,分別爲電視版總集篇《5年3組的回憶》與描述主角群在事情結束之後,昇上六年級的故事的《初戀大作戰!》、《陽昇城機關夢日記》、《大家是地球防衛組》三作。2004年發售重新制作的限量DVD-BOX。

台灣於1994年至1995年間於台灣電視公司播出本作[1],並由木棉花與博英社發行電視本篇及OVA(並不包括《5年3組的回憶》)的錄影帶,之後又相繼在東視綜合台、中都卡通台、衛視中文台等頻道數度重播過,目前最新一次的放映則是在MOMO親子台。而香港無綫電視及中國大陸亦也曾有播出。

【故事簡介】

在廣闊無際的宇宙,來自異世界的邪惡組織,覬覦著地球,打算攻擊侵略,而爲了能快速攻佔,便發動了一個能吸收意志而能發展成邪惡生命體的武器,只不過發射之前,被守護地球的正義使者發覺,而展開反擊,然而因爲邪惡組織的一個動作,使正義使者不幸失敗,隨著機體落置地球的某個城市的小學,而此時也就開始了,這個小學的某個班級,守護地球的任務......

【STAFF】

* 企劃:日昇動畫

* 原作:矢立肇

* 系列構成:園田英樹

* 人物設定:武內啓

* 機械設計:やまだたかひろ(山國高裕)

* 美術監督:池田繁美

* 攝影監督:鳥越一志

* 編集:瀬山武司

* 音響監督:山崎あきら

* 音樂:田中公平

* 設定制作:谷口悟朗

* 制作進行:吉村章

* 監督:川瀬敏文

* 制作人:倉林伸介、藤波俊彥、內田健二

* 制作:株式會社テレビ東京、株式會社読売広告社、株式會社サンライズ

* 著作:©1991 SUNRISE INC.・テレビ東京

【CAST】

* 向仁(日向仁):松本梨香(日本)

* 月飛(月城飛鳥):岩坪理江(日本)

* 星吼兒(星山吼兒):丸田麻裏(日本)

* 阿明(今村あきら):南杏子(日本)

* 吉明(小川よしあき):佐藤智惠(日本)

* 林勉(小島勉):島田敏(日本)

* 小則(近藤ひでのり):吉田古奈美(日本)

* 大方(佐藤大介):塩屋浩三(日本)

* 廣志(高森ひろし):松井摩味(日本)

* 田麗(池田れい子):鈴木砂織(日本)

* 白瑪莉(白鳥マリア):吉田古奈美(日本)

* 元春琪(春野きらら):南杏子(日本)

* 美真(真野美紀):鈴木砂織(日本)

* 篠田俊太郎:梁田清之(日本)

* 姫木るる子:林原惠(日本)

* 矢沢永吉郎:石井敏郎(日本)

* 谷口 六郎:上村典子(日本)

* 日向父親:梁田清之;島田敏(日本)

* 日向母親:南杏子(日本)

* 日向 陽太郎:鈴木れい子(日本)

* 月城父親:秋元羊介(日本)

* 月城母親:林原めぐみ(日本)

* 藍光人(エルドラン):島田敏(日本)

* 武田長官:西村知道(日本)

* 洛兒(キャロル):平野正人(日本)

* 皇帝華沙(ワルーサ):笹岡繁蔵(日本)

* 撒旦(ベルゼブ):梁田清之(日本)

* 法兒潔(ファルゼブ): 林原惠(日本)

* 泰達(タイダー):吉村よう(1~38集)、辻村真人(39集以後)

* 惡煞(ゴクドー): 大塚明夫(日本)

代碼

Format : RealMedia

File size : 105 MiB

Duration : 24mn 43s

Overall bit rate : 584 Kbps

Performer : 天河名人

Copyright : HKG

Video

ID : 1

Format : RealVideo 4

Codec ID : RV40

Codec ID/Info : Based on AVC (H.264), Real Player 9

Duration : 24mn 43s

Bit rate : 456 Kbps

Width : 640 pixels

Height : 480 pixels

Display aspect ratio : 4:3

Frame rate : 23.000 fps

Resolution : 12 bits

Bits/(Pixel*Frame) : 0.064

Stream size : 80.5 MiB (77%)

Audio

ID : 0

Format : AAC

Format/Info : Advanced Audio Codec

Codec ID : raac

Codec ID/Info : Real Player 9

Duration : 24mn 43s

Bit rate : 128 Kbps

Channel(s) : 2 channels

Sampling rate : 44.1 KHz

Resolution : 16 bits

Stream size : 22.6 MiB (22%)

【載圖】

《絕對無敵雷神王》(Zettai Muteki Raijin-Oh)[1991年04月03日經典][HKG字幕組][全51集]更新第6集[RMVB]

《絕對無敵雷神王》(Zettai Muteki Raijin-Oh)[1991年04月03日經典][HKG字幕組][全51集]更新第6集[RMVB]

《絕對無敵雷神王》(Zettai Muteki Raijin-Oh)[1991年04月03日經典][HKG字幕組][全51集]更新第6集[RMVB]

 說明  因可能的版權問題本站不再提供該資源下載,您可以使用eMule(百度eMule或電驢下載安裝)軟件搜索該資源名下載。參考文檔:eMule如何搜索文件?
中文名: 絕對無敵雷神王 英文名: Zettai Muteki Raijin-Oh 資源格式: RMVB 版本: [1991年04月03日經典][HKG字幕組][全51集]更新第6集 發行時間: 1991年04月03日 導演: 川瀬敏文 地區: 日本 語言: 日語 簡介: [url=/bt/detail_68385.html][img]http://image.wangchao.net.cn/bt/1260126852161.jpg[/img][/url] 【作品簡介】 絕對無敵(日文:絶対無敵ライジンオー,英文:Zettai Muteki Raijin-Oh),是由日昇動畫所制作的Eldran系列第一部作品,於1991年4月3日至1992年3月25日間,在東京電視台所播映的動畫,播畢後並有發行四部OVA,分別爲電視版總集篇《5年3組的回憶》與描述主角群在事情結束之後,昇上六年級的故事的《初戀大作戰!》、《陽昇城機關夢日記》、《大家是地球防衛組》三作。2004年發售重新制作的限量DVD-BOX。 台灣於1994年至1995年間於台灣電視公司播出本作[1],並由木棉花與博英社發行電視本篇及OVA(並不包括《5年3組的回憶》)的錄影帶,之後又相繼在東視綜合台、中都卡通台、衛視中文台等頻道數度重播過,目前最新一次的放映則是在MOMO親子台。而香港無綫電視及中國大陸亦也曾有播出。 【故事簡介】 在廣闊無際的宇宙,來自異世界的邪惡組織,覬覦著地球,打算攻擊侵略,而爲了能快速攻佔,便發動了一個能吸收意志而能發展成邪惡生命體的武器,只不過發射之前,被守護地球的正義使者發覺,而展開反擊,然而因爲邪惡組織的一個動作,使正義使者不幸失敗,隨著機體落置地球的某個城市的小學,而此時也就開始了,這個小學的某個班級,守護地球的任務...... 【STAFF】 * 企劃:日昇動畫 * 原作:矢立肇 * 系列構成:園田英樹 * 人物設定:武內啓 * 機械設計:やまだたかひろ(山國高裕) * 美術監督:池田繁美 * 攝影監督:鳥越一志 * 編集:瀬山武司 * 音響監督:山崎あきら * 音樂:田中公平 * 設定制作:谷口悟朗 * 制作進行:吉村章 * 監督:川瀬敏文 * 制作人:倉林伸介、藤波俊彥、內田健二 * 制作:株式會社テレビ東京、株式會社読売広告社、株式會社サンライズ * 著作:©1991 SUNRISE INC.・テレビ東京 【CAST】 * 向仁(日向仁):松本梨香(日本) * 月飛(月城飛鳥):岩坪理江(日本) * 星吼兒(星山吼兒):丸田麻裏(日本) * 阿明(今村あきら):南杏子(日本) * 吉明(小川よしあき):佐藤智惠(日本) * 林勉(小島勉):島田敏(日本) * 小則(近藤ひでのり):吉田古奈美(日本) * 大方(佐藤大介):塩屋浩三(日本) * 廣志(高森ひろし):松井摩味(日本) * 田麗(池田れい子):鈴木砂織(日本) * 白瑪莉(白鳥マリア):吉田古奈美(日本) * 元春琪(春野きらら):南杏子(日本) * 美真(真野美紀):鈴木砂織(日本) * 篠田俊太郎:梁田清之(日本) * 姫木るる子:林原惠(日本) * 矢沢永吉郎:石井敏郎(日本) * 谷口 六郎:上村典子(日本) * 日向父親:梁田清之;島田敏(日本) * 日向母親:南杏子(日本) * 日向 陽太郎:鈴木れい子(日本) * 月城父親:秋元羊介(日本) * 月城母親:林原めぐみ(日本) * 藍光人(エルドラン):島田敏(日本) * 武田長官:西村知道(日本) * 洛兒(キャロル):平野正人(日本) * 皇帝華沙(ワルーサ):笹岡繁蔵(日本) * 撒旦(ベルゼブ):梁田清之(日本) * 法兒潔(ファルゼブ): 林原惠(日本) * 泰達(タイダー):吉村よう(1~38集)、辻村真人(39集以後) * 惡煞(ゴクドー): 大塚明夫(日本) 代碼 Format : RealMedia File size : 105 MiB Duration : 24mn 43s Overall bit rate : 584 Kbps Performer : 天河名人 Copyright : HKG Video ID : 1 Format : RealVideo 4 Codec ID : RV40 Codec ID/Info : Based on AVC (H.264), Real Player 9 Duration : 24mn 43s Bit rate : 456 Kbps Width : 640 pixels Height : 480 pixels Display aspect ratio : 4:3 Frame rate : 23.000 fps Resolution : 12 bits Bits/(Pixel*Frame) : 0.064 Stream size : 80.5 MiB (77%) Audio ID : 0 Format : AAC Format/Info : Advanced Audio Codec Codec ID : raac Codec ID/Info : Real Player 9 Duration : 24mn 43s Bit rate : 128 Kbps Channel(s) : 2 channels Sampling rate : 44.1 KHz Resolution : 16 bits Stream size : 22.6 MiB (22%) 【載圖】 [url=/bt/detail_68385.html][img]http://image.wangchao.net.cn/bt/1260126854713.jpg[/img][/url] [url=/bt/detail_68385.html][img]http://image.wangchao.net.cn/bt/1260126857083.jpg[/img][/url] [url=/bt/detail_68385.html][img]http://image.wangchao.net.cn/bt/1260126859479.jpg[/img][/url]
󰈣󰈤
 
 
 
>>返回首頁<<
 
因版權問題本站不提供資源下載
 
 
 
 
 
 熱帖排行
 
王朝網路微信公眾號
微信掃碼關註本站公眾號 wangchaonetcn
 
 
靜靜地坐在廢墟上,四周的荒凉一望無際,忽然覺得,淒涼也很美
© 2005- 王朝網路 版權所有